Jump to content

Neo-cd Emu For Dreamcast!


Recommended Posts

OK I've Downloaded Metal slug but it came in mp3s and iso come along too. How the hell am I suppossed to burn this crap.? And Where can I even get this emulator?

 

EDIT: Sorry for sounding rude.

Edited by DanManXZ
Link to comment
Share on other sites

  • Replies 31
  • Created
  • Last Reply

Top Posters In This Topic

the easiest way is to create a CUE sheet to help you burn your iso and mp3 files (i have the exact same metal slug so use this)

 

Open up a new text document and copy/past the following:

FILE "Metal Slug - Track 01.iso" BINARY
 TRACK 01 MODE1/2048
   INDEX 01 00:00:00
FILE "Metal Slug - Track 02.mp3" MP3
 TRACK 02 AUDIO
   PREGAP 00:03:00
   INDEX 01 00:00:00
FILE "Metal Slug - Track 03.mp3" MP3
 TRACK 03 AUDIO
   INDEX 01 00:00:00
FILE "Metal Slug - Track 04.mp3" MP3
 TRACK 04 AUDIO
   INDEX 01 00:00:00
FILE "Metal Slug - Track 05.mp3" MP3
 TRACK 05 AUDIO
   INDEX 01 00:00:00
FILE "Metal Slug - Track 06.mp3" MP3
 TRACK 06 AUDIO
   INDEX 01 00:00:00
FILE "Metal Slug - Track 07.mp3" MP3
 TRACK 07 AUDIO
   INDEX 01 00:00:00
FILE "Metal Slug - Track 08.mp3" MP3
 TRACK 08 AUDIO
   INDEX 01 00:00:00
FILE "Metal Slug - Track 09.mp3" MP3
 TRACK 09 AUDIO
   INDEX 01 00:00:00
FILE "Metal Slug - Track 10.mp3" MP3
 TRACK 09 AUDIO
   INDEX 01 00:00:00
FILE "Metal Slug - Track 11.mp3" MP3
 TRACK 09 AUDIO
   INDEX 01 00:00:00
FILE "Metal Slug - Track 12.mp3" MP3
 TRACK 09 AUDIO
   INDEX 01 00:00:00
FILE "Metal Slug - Track 13.mp3" MP3
 TRACK 09 AUDIO
   INDEX 01 00:00:00
FILE "Metal Slug - Track 14.mp3" MP3
 TRACK 09 AUDIO
   INDEX 01 00:00:00
FILE "Metal Slug - Track 15.mp3" MP3
 TRACK 09 AUDIO
   INDEX 01 00:00:00
FILE "Metal Slug - Track 16.mp3" MP3
 TRACK 09 AUDIO
   INDEX 01 00:00:00
FILE "Metal Slug - Track 17.mp3" MP3
 TRACK 09 AUDIO
   INDEX 01 00:00:00
FILE "Metal Slug - Track 18.mp3" MP3
 TRACK 09 AUDIO
   INDEX 01 00:00:00
FILE "Metal Slug - Track 19.mp3" MP3
 TRACK 09 AUDIO
   INDEX 01 00:00:00
FILE "Metal Slug - Track 20.mp3" MP3
 TRACK 09 AUDIO
   INDEX 01 00:00:00

 

just save it as Metal Slug.cue

 

load up Nero or whatever you use and load up this cue sheet for the burn.

Link to comment
Share on other sites

There are Cue Sheet creating softs out there, meant for creating cue sheets from ISO+MP3 rips and other kinds of things.

Sega Cue Maker was designed for Sega CD/Saturn rips....and works just fine with anything else, including Neo Geo CD.

 

Google for it........

Link to comment
Share on other sites

There are Cue Sheet creating softs out there, meant for creating cue sheets from ISO+MP3 rips and other kinds of things.

Sega Cue Maker was designed for Sega CD/Saturn rips....and works just fine with anything else, including Neo Geo CD.

 

Google for it........

does it work for PC-Engine games too?

Link to comment
Share on other sites

PCE CD is before yellow book CD standards, and many discs have different layouts.........as well as more than one data track.

So no, it won't work for PCE CD, you need the original CUE that came with the rip, not just any CUE.

Link to comment
Share on other sites

Or you could burn the images on a CD-RW to test if they. I would recommend using MagicEngine as it's the only emulator that supports burned images. You can read the logs and make sure the image has the proper pregap/postgap. All Turbo CD games I've burned had an audio track, data track, and several audio tracks after. You could use a commerical CUE sheet maker (forgot the name). It'll let you set it up properly. You can grab the Sega CUE Sheet Maker from SegaXtreme, which also links to the author's site (it's under the Help & FAQs section).

Link to comment
Share on other sites

heh, did you have to overcome lazyness and make that? or did you find that? i would have redownloaded just because im too lazy to do that

lol well when it comes to this stuff im very familiar with it to fix a lot of VCD releases, etc to run on my standalones. Also got some time doing these with my saturn backups. For MetalSlug, i just copied the iron clad cue sheet i had and added tracks.

Link to comment
Share on other sites

Create an account or sign in to comment

You need to be a member in order to leave a comment

Create an account

Sign up for a new account in our community. It's easy!

Register a new account

Sign in

Already have an account? Sign in here.

Sign In Now
 Share


×
×
  • Create New...