Jump to content

Problems with HugoX and some games (lack sound)


legolas11908
 Share

Recommended Posts

Hi,I have some pc engine cd games which don't work on hugoX. For example Rayxamber 2 lacks sound and hellfire doen't works. I install all pc engine game on xbox with cue+mp3 (I converted wav file into mp3 and I modified the cuesheet with.mp3 in.wav). Other games works perfectly. Is it possible that poblems with Rayxamber 2 and Hellfire exist becasue the hugo X doesn't support them?

 

Thanks

Link to comment
Share on other sites

  • Replies 26
  • Created
  • Last Reply

Top Posters In This Topic

Hi,I have some pc engine cd games which don't work on hugoX. For example Rayxamber 2 lacks sound and hellfire doen't works. I install all pc engine game on xbox with cue+mp3 (I converted wav file into mp3 and I modified the cuesheet with.mp3 in.wav). Other games works perfectly. Is it possible that poblems with Rayxamber 2 and Hellfire exist becasue the hugo X doesn't support them?

 

Thanks

 

Rayxanber II seems to work fine for me... I can't remember if I've ever tried Hellfire or not... I think I did but didn't bother keeping it because I could play it on the Genesis emulator.

 

There's a working CUE for Rayxanber on Xport's site here: Link

 

Just make sure your file names match the names in the CUE. When I get a chance I'll try Hellfire later.

Link to comment
Share on other sites

Ok,well, your cue file is this:

 

FILE "rayxander_2_01.mp3" BINARY

TRACK 1 AUDIO

INDEX 1 00:00:00

FILE "rayxander_2_02.iso" BINARY

TRACK 2 MODE1/2352

INDEX 1 00:47:65

FILE "rayxander_2_03.mp3" BINARY

TRACK 3 AUDIO

INDEX 1 01:25:14

FILE "rayxander_2_04.mp3" BINARY

TRACK 4 AUDIO

INDEX 1 04:47:09

FILE "rayxander_2_05.mp3" BINARY

TRACK 5 AUDIO

INDEX 1 08:10:12

FILE "rayxander_2_06.mp3" BINARY

TRACK 6 AUDIO

INDEX 1 11:14:54

FILE "rayxander_2_07.mp3" BINARY

TRACK 7 AUDIO

INDEX 1 15:10:13

FILE "rayxander_2_08.mp3" BINARY

TRACK 8 AUDIO

INDEX 1 19:40:48

FILE "rayxander_2_09.mp3" BINARY

TRACK 9 AUDIO

INDEX 1 23:18:62

FILE "rayxander_2_10.mp3" BINARY

TRACK 10 AUDIO

INDEX 1 26:02:02

FILE "rayxander_2_11.mp3" BINARY

TRACK 11 AUDIO

INDEX 1 31:04:13

FILE "rayxander_2_12.mp3" BINARY

TRACK 12 AUDIO

INDEX 1 36:02:52

FILE "rayxander_2_13.mp3" BINARY

TRACK 13 AUDIO

INDEX 1 36:19:31

FILE "rayxander_2_14.mp3" BINARY

TRACK 14 AUDIO

INDEX 1 37:06:10

FILE "rayxander_2_15.mp3" BINARY

TRACK 15 AUDIO

INDEX 1 37:16:41

FILE "rayxander_2_16.iso" BINARY

TRACK 16 MODE1/2352

INDEX 1 37:52:19

 

 

 

My cue file is:

 

FILE Track01.wav WAVE

TRACK 01 AUDIO

INDEX 01 00:00:00

FILE Track02.iso BINARY

TRACK 02 MODE1/2048

PREGAP 00:03:00

INDEX 01 00:00:00

FILE Track03.wav WAVE

TRACK 03 AUDIO

PREGAP 00:02:00

INDEX 01 00:00:00

FILE Track04.wav WAVE

TRACK 04 AUDIO

PREGAP 00:00:00

INDEX 01 00:00:00

FILE Track05.wav WAVE

TRACK 05 AUDIO

PREGAP 00:00:00

INDEX 01 00:00:00

FILE Track06.wav WAVE

TRACK 06 AUDIO

PREGAP 00:00:00

INDEX 01 00:00:00

FILE Track07.wav WAVE

TRACK 07 AUDIO

PREGAP 00:00:00

INDEX 01 00:00:00

FILE Track08.wav WAVE

TRACK 08 AUDIO

PREGAP 00:00:00

INDEX 01 00:00:00

FILE Track09.wav WAVE

TRACK 09 AUDIO

PREGAP 00:00:00

INDEX 01 00:00:00

FILE Track10.wav WAVE

TRACK 10 AUDIO

PREGAP 00:00:00

INDEX 01 00:00:00

FILE Track11.wav WAVE

TRACK 11 AUDIO

PREGAP 00:00:00

INDEX 01 00:00:00

FILE Track12.wav WAVE

TRACK 12 AUDIO

PREGAP 00:00:00

INDEX 01 00:00:00

FILE Track13.wav WAVE

TRACK 13 AUDIO

PREGAP 00:00:00

INDEX 01 00:00:00

FILE Track14.wav WAVE

TRACK 14 AUDIO

PREGAP 00:00:00

INDEX 01 00:00:00

FILE Track15.wav WAVE

TRACK 15 AUDIO

PREGAP 00:00:00

INDEX 01 00:00:00

FILE Track16.iso BINARY

TRACK 16 MODE1/2048

PREGAP 00:03:00

INDEX 01 00:00:00

 

Well,I convert all track from wav to mp3 and I rewrite my cue in this way:

 

FILE Track01.mp3 MP3

TRACK 01 AUDIO

INDEX 01 00:00:00

FILE Track02.iso BINARY

TRACK 02 MODE1/2048

PREGAP 00:03:00

INDEX 01 00:00:00

FILE Track03.mp3 MP3

TRACK 03 AUDIO

PREGAP 00:02:00

INDEX 01 00:00:00

FILE Track04.mp3 MP3

TRACK 04 AUDIO

PREGAP 00:00:00

INDEX 01 00:00:00

FILE Track05.mp3 MP3

TRACK 05 AUDIO

PREGAP 00:00:00

INDEX 01 00:00:00

FILE Track06.mp3 MP3

TRACK 06 AUDIO

PREGAP 00:00:00

INDEX 01 00:00:00

FILE Track07.mp3 MP3

TRACK 07 AUDIO

PREGAP 00:00:00

INDEX 01 00:00:00

FILE Track08.mp3 MP3

TRACK 08 AUDIO

PREGAP 00:00:00

INDEX 01 00:00:00

FILE Track09.mp3 MP3

TRACK 09 AUDIO

PREGAP 00:00:00

INDEX 01 00:00:00

FILE Track10.mp3 MP3

TRACK 10 AUDIO

PREGAP 00:00:00

INDEX 01 00:00:00

FILE Track11.mp3 MP3

TRACK 11 AUDIO

PREGAP 00:00:00

INDEX 01 00:00:00

FILE Track12.mp3 MP3

TRACK 12 AUDIO

PREGAP 00:00:00

INDEX 01 00:00:00

FILE Track13.mp3 MP3

TRACK 13 AUDIO

PREGAP 00:00:00

INDEX 01 00:00:00

FILE Track14.mp3 MP3

TRACK 14 AUDIO

PREGAP 00:00:00

INDEX 01 00:00:00

FILE Track15.mp3 MP3

TRACK 15 AUDIO

PREGAP 00:00:00

INDEX 01 00:00:00

FILE Track16.iso BINARY

TRACK 16 MODE1/2048

PREGAP 00:03:00

INDEX 01 00:00:00

 

Then I transfer the game on xbox and it works,but I can listen only soun effect,not music (other pc engine games,in this way,work perfectly).Why? Have I to modify your cue file? How?

I have same problem with "Downtown Nekketsu Monogatari ".

Instead Hellfire doesn't work... :)

 

Please help me

 

Thank you very much

Link to comment
Share on other sites

Then I transfer the game on xbox and it works,but I can listen only soun effect,not music (other pc engine games,in this way,work perfectly).Why? Have I to modify your cue file? How?

 

You have two options. One, rename all your files to match the names used in the CUE file that I linked to... Two, change the names in my CUE files to match the names of you files. Do either of those and then try to launch the game again with the new CUE file.

Link to comment
Share on other sites

Perfect,I change the names in your CUE files to match the names of my files and now it works!!!!

 

I have same problem (lacks sound) with Star Parodia and Downtown Nekketsu Monogatari.Can you give me your cue file,please?

Do you have also Hellfire?It doesn't work on hugoX (is it supported?)

 

Thanks :unsure:

Link to comment
Share on other sites

You can a list of some working CUE sheets here: Link

 

Star Parodia is in there. Sorry I haven't gotten around to Hellfire yet. I'm pretty sure I had it running at one time but as I said earlier I didn't bother keeping it on my XBox because I could play it on Genesis anyway. But I'll take a look at it tonight. If I get it working I'll post the cue.

 

[edit] Seems I got rid of Hellfire... I can't find it right now. I'll see if I can find it again.

Edited by Thraxen
Link to comment
Share on other sites

Alright, I got HellFire S working. Use this cue:

FILE "Track01.mp3" BINARY
TRACK 1 AUDIO
 INDEX 1 00:00:00
FILE "Track02.iso" BINARY
TRACK 2 MODE1/2048
 INDEX 1 00:47:65
FILE "Track03.mp3" BINARY
TRACK 3 AUDIO
 INDEX 1 01:16:08
FILE "Track04.mp3" BINARY
TRACK 4 AUDIO
 INDEX 1 01:48:70
FILE "Track05.mp3" BINARY
TRACK 5 AUDIO
 INDEX 1 02:33:56
FILE "Track06.mp3" BINARY
TRACK 6 AUDIO
 INDEX 1 05:24:68
FILE "Track07.mp3" BINARY
TRACK 7 AUDIO
 INDEX 1 11:51:72
FILE "Track08.mp3" BINARY
TRACK 8 AUDIO
 INDEX 1 16:14:16
FILE "Track09.mp3" BINARY
TRACK 9 AUDIO
 INDEX 1 16:20:45
FILE "Track10.mp3" BINARY
TRACK 10 AUDIO
 INDEX 1 21:08:16
FILE "Track11.mp3" BINARY
TRACK 11 AUDIO
 INDEX 1 28:28:40
FILE "Track12.mp3" BINARY
TRACK 12 AUDIO
 INDEX 1 33:12:29
FILE "Track13.mp3" BINARY
TRACK 13 AUDIO
 INDEX 1 37:37:35
FILE "Track14.mp3" BINARY
TRACK 14 AUDIO
 INDEX 1 38:05:21
FILE "Track15.mp3" BINARY
TRACK 15 AUDIO
 INDEX 1 38:57:41
FILE "Track16.mp3" BINARY
TRACK 16 AUDIO
 INDEX 1 40:08:18
FILE "Track17.mp3" BINARY
TRACK 17 AUDIO
 INDEX 1 40:22:39
FILE "Track18.mp3" BINARY
TRACK 18 AUDIO
 INDEX 1 41:22:12
FILE "Track19.mp3" BINARY
TRACK 19 AUDIO
 INDEX 1 41:40:06
FILE "Track20.mp3" BINARY
TRACK 20 AUDIO
 INDEX 1 42:13:57
FILE "Track21.mp3" BINARY
TRACK 21 AUDIO
 INDEX 1 46:07:64
FILE "Track22.mp3" BINARY
TRACK 22 AUDIO
 INDEX 1 46:16:08
FILE "Track23.mp3" BINARY
TRACK 23 AUDIO
 INDEX 1 46:31:10
FILE "Track24.iso" BINARY
TRACK 24 MODE1/2048
 INDEX 1 46:56:66

Link to comment
Share on other sites

Thanks!! It works now!!!

Do you also have the cue of Downtown Nekketsu Monogatari?I have same problem of lack sound ;)

 

Thank you very much for your help!

 

Bye

 

Well, I don't have that game and can't seem to locate it right now either... I'll keep looking though,.

 

Anyway, here is what I did to get Hellfire S working.

 

First I tried Sega Cue Maker, but it failed. SCM doesn't make PC Engine cue files correctly anyway. It puts them in Sega CD format. For example, it always lists the ISO track first when the first PC Engine ISO track is always track 2. Also, if there is more than one ISO track it won't list the second one. I assume this is because Sega CDs must only use one ISO track so it doesn't know how to handle more than one.

 

So I then used CDDISSECT. I burned the ISO to a CD-RW and then used CDDISSECT to make a cue sheet. CDDISSECT is a command line program, but don't let that scare you away, it's easy to use.

 

1. Burn ISO to a CD

2. Put CD in drive

3. Start -> Run -> cmd (to bring up command prompt)

4. Navigate to where the CDDISSECT executable is located (cd = change directory)

5. Type this in, "cddissect -alt -cue Hellfire"

6. Select drive

7. Done

 

 

You might not have to use the "-alt" flag, but I did. CDDISSECT won't work with some drive without it. The "-cue" flag just tells the program to only make a CUE sheet and not actually rip any tracks.

 

The only bug with CDDISSECT is that it doesn't report the ISO format correctly on PC Engine games. When you have the cue you need to change the ISO format to say this "MODE1/2048"... CDDISSECT will put this instead "TRACK 2 MODE1/2385" (or something like that). The games will usually play with the wrong format listed, but it's not technically correct so I usually fix it.

Edited by Thraxen
Link to comment
Share on other sites

Create an account or sign in to comment

You need to be a member in order to leave a comment

Create an account

Sign up for a new account in our community. It's easy!

Register a new account

Sign in

Already have an account? Sign in here.

Sign In Now
 Share


×
×
  • Create New...